Buscar
 
 

Resultados por:
 


Rechercher Búsqueda avanzada

Navegación
 Índice
 Wiki
 FAQ del foro
 FAQ del VDR-NG-EM
 Funcionalidades del VDR
 Mejoras del VDR-NG-EM
 Primeros pasos FW-VDR
 Descargas VDR-NG-EM
Flujo RSS


Yahoo! 
MSN 
AOL 
Netvibes 
Bloglines 



TVE HD ha cambiado

Ver el tema anterior Ver el tema siguiente Ir abajo

TVE HD ha cambiado

Mensaje por Tito el Lun 23 Dic 2013 - 22:51

Creo que para mal. No se que pasa, pero acabo de descubrir que si trato de ver una grabación de TVE HD (del lunes de madrugada) mediante la interfaz web o mediante megatomb se queda pausada en el comienzo, y no hay mas. Ni saltando en la barra de localización ni nada permite verlo. Las grabaciones antiguas si que las veo bien.
Otras cadenas HD las grabo y reproduzco sin problema.
Probé a bajar por FTP un fragmento, (un trozo de los que el VDR divide en 300 Mb) y tampoco se ve con VLC. Un trozo de un programa antiguo si se ve.
Probé a abrir el archivo .vdr con otra aplicación, pero tampoco.

En fin, parece que es cosa de TVE, pero no estoy seguro. ¿Sabeis algo? ¿Algún remedio de la abuela? Gracias.
avatar
Tito

Cantidad de envíos : 105
Fecha de inscripción : 23/12/2010
Localización : Oviedo, Spain

Ver perfil de usuario

Volver arriba Ir abajo

Re: TVE HD ha cambiado

Mensaje por bittor el Jue 26 Dic 2013 - 8:47

Prueba a ejecutar un "ffmpeg -i archivo.vdr" (o usa algún otro programa que te de información de la grabación) en una grabación que sí te funcione y otra que no y pon aquí el resultado de ambas.
avatar
bittor
Desarrollador

Cantidad de envíos : 3632
Fecha de inscripción : 25/06/2008
Localización : Zaragoza

Ver perfil de usuario http://bittor7x0.googlepages.com

Volver arriba Ir abajo

Re: TVE HD ha cambiado

Mensaje por Tito el Jue 26 Dic 2013 - 23:28

Bittor, me vas a disculpar pero mañana desaparezco del mapa durante 1 semana. Lo ejecuto al regresar.
Esta tarde/noche 12.26.2013 le eché un tiento, no tenía instalado ffmepeg, hice un apt get pero no lo encontró. Supongo que el repositorio también estaba de vacaciones. Tenía todo el equipaje patas arriba, así que, eso, disculpas que desaparezco a ejercer lo mismo que el pinguino de mi avatar.
avatar
Tito

Cantidad de envíos : 105
Fecha de inscripción : 23/12/2010
Localización : Oviedo, Spain

Ver perfil de usuario

Volver arriba Ir abajo

Re: TVE HD ha cambiado

Mensaje por Tito el Dom 5 Ene 2014 - 23:47

Retomo el tema:
probando a ejecutar ffmpeg -i

ARCHIVO QUE SI SE VE
Código:
tito@test:~$ cd /home/tito/Vídeos
tito@test:~/Vídeos$ ffmpeg -i 005.vdr
ffmpeg version 0.7.6-4:0.7.6-0ubuntu0.11.10.3, Copyright (c) 2000-2011 the Libav developers
  built on Jan 24 2013 19:25:26 with gcc 4.6.1
  configuration: --extra-version='4:0.7.6-0ubuntu0.11.10.3' --arch=i386 --prefix=/usr --enable-vdpau --enable-bzlib --enable-libgsm --enable-libschroedinger --enable-libspeex --enable-libtheora --enable-libvorbis --enable-pthreads --enable-zlib --enable-libvpx --enable-runtime-cpudetect --enable-vaapi --enable-gpl --enable-postproc --enable-swscale --enable-x11grab --enable-libdc1394 --enable-shared --disable-static
  WARNING: library configuration mismatch
  avutil      configuration: --extra-version='4:0.7.6-0ubuntu0.11.10.3' --arch=i386 --prefix=/usr --enable-vdpau --enable-bzlib --enable-libgsm --enable-libschroedinger --enable-libspeex --enable-libtheora --enable-libvorbis --enable-pthreads --enable-zlib --enable-libvpx --enable-runtime-cpudetect --enable-vaapi --enable-gpl --enable-postproc --enable-swscale --enable-x11grab --enable-libdc1394 --shlibdir=/usr/lib/i686/cmov --cpu=i686 --enable-shared --disable-static --disable-ffmpeg --disable-ffplay
  avcodec     configuration: --extra-version='4:0.7.6-0ubuntu0.11.10.3' --arch=i386 --prefix=/usr --enable-vdpau --enable-bzlib --enable-libgsm --enable-libschroedinger --enable-libspeex --enable-libtheora --enable-libvorbis --enable-pthreads --enable-zlib --enable-libvpx --enable-runtime-cpudetect --enable-vaapi --enable-gpl --enable-postproc --enable-swscale --enable-x11grab --enable-libdc1394 --shlibdir=/usr/lib/i686/cmov --cpu=i686 --enable-shared --disable-static --disable-ffmpeg --disable-ffplay
  avformat    configuration: --extra-version='4:0.7.6-0ubuntu0.11.10.3' --arch=i386 --prefix=/usr --enable-vdpau --enable-bzlib --enable-libgsm --enable-libschroedinger --enable-libspeex --enable-libtheora --enable-libvorbis --enable-pthreads --enable-zlib --enable-libvpx --enable-runtime-cpudetect --enable-vaapi --enable-gpl --enable-postproc --enable-swscale --enable-x11grab --enable-libdc1394 --shlibdir=/usr/lib/i686/cmov --cpu=i686 --enable-shared --disable-static --disable-ffmpeg --disable-ffplay
  avdevice    configuration: --extra-version='4:0.7.6-0ubuntu0.11.10.3' --arch=i386 --prefix=/usr --enable-vdpau --enable-bzlib --enable-libgsm --enable-libschroedinger --enable-libspeex --enable-libtheora --enable-libvorbis --enable-pthreads --enable-zlib --enable-libvpx --enable-runtime-cpudetect --enable-vaapi --enable-gpl --enable-postproc --enable-swscale --enable-x11grab --enable-libdc1394 --shlibdir=/usr/lib/i686/cmov --cpu=i686 --enable-shared --disable-static --disable-ffmpeg --disable-ffplay
  avfilter    configuration: --extra-version='4:0.7.6-0ubuntu0.11.10.3' --arch=i386 --prefix=/usr --enable-vdpau --enable-bzlib --enable-libgsm --enable-libschroedinger --enable-libspeex --enable-libtheora --enable-libvorbis --enable-pthreads --enable-zlib --enable-libvpx --enable-runtime-cpudetect --enable-vaapi --enable-gpl --enable-postproc --enable-swscale --enable-x11grab --enable-libdc1394 --shlibdir=/usr/lib/i686/cmov --cpu=i686 --enable-shared --disable-static --disable-ffmpeg --disable-ffplay
  swscale     configuration: --extra-version='4:0.7.6-0ubuntu0.11.10.3' --arch=i386 --prefix=/usr --enable-vdpau --enable-bzlib --enable-libgsm --enable-libschroedinger --enable-libspeex --enable-libtheora --enable-libvorbis --enable-pthreads --enable-zlib --enable-libvpx --enable-runtime-cpudetect --enable-vaapi --enable-gpl --enable-postproc --enable-swscale --enable-x11grab --enable-libdc1394 --shlibdir=/usr/lib/i686/cmov --cpu=i686 --enable-shared --disable-static --disable-ffmpeg --disable-ffplay
  postproc    configuration: --extra-version='4:0.7.6-0ubuntu0.11.10.3' --arch=i386 --prefix=/usr --enable-vdpau --enable-bzlib --enable-libgsm --enable-libschroedinger --enable-libspeex --enable-libtheora --enable-libvorbis --enable-pthreads --enable-zlib --enable-libvpx --enable-runtime-cpudetect --enable-vaapi --enable-gpl --enable-postproc --enable-swscale --enable-x11grab --enable-libdc1394 --shlibdir=/usr/lib/i686/cmov --cpu=i686 --enable-shared --disable-static --disable-ffmpeg --disable-ffplay
  libavutil    51.  7. 0 / 51.  7. 0
  libavcodec   53.  6. 0 / 53.  6. 0
  libavformat  53.  3. 0 / 53.  3. 0
  libavdevice  53.  0. 0 / 53.  0. 0
  libavfilter   2.  4. 0 /  2.  4. 0
  libswscale    2.  0. 0 /  2.  0. 0
  libpostproc  52.  0. 0 / 52.  0. 0
Input #0, mpegts, from '005.vdr':
  Duration: 00:04:35.07, start: 64020.597711, bitrate: 9169 kb/s
  Program 1
    Stream #0.0[0x3e9]: Video: h264 (High), yuv420p, 1280x720 [PAR 1:1 DAR 16:9], 50 fps, 50 tbr, 90k tbn, 100 tbc
    Stream #0.1[0x44c]: Audio: eac3, 48000 Hz, stereo, s16, 320 kb/s
    Stream #0.2[0x44d]: Audio: eac3, 48000 Hz, stereo, s16, 320 kb/s
At least one output file must be specified
tito@test:~/Vídeos$
ARCHIVO QUE NO SE VE
Código:
To run a command as administrator (user "root"), use "sudo <command>".
See "man sudo_root" for details.

tito@test:~$ cd /home/tito/Vídeos
tito@test:~/Vídeos$ ffmpeg -i 006.vdr
ffmpeg version 0.7.6-4:0.7.6-0ubuntu0.11.10.3, Copyright (c) 2000-2011 the Libav developers
  built on Jan 24 2013 19:25:26 with gcc 4.6.1
  configuration: --extra-version='4:0.7.6-0ubuntu0.11.10.3' --arch=i386 --prefix=/usr --enable-vdpau --enable-bzlib --enable-libgsm --enable-libschroedinger --enable-libspeex --enable-libtheora --enable-libvorbis --enable-pthreads --enable-zlib --enable-libvpx --enable-runtime-cpudetect --enable-vaapi --enable-gpl --enable-postproc --enable-swscale --enable-x11grab --enable-libdc1394 --enable-shared --disable-static
  WARNING: library configuration mismatch
  avutil      configuration: --extra-version='4:0.7.6-0ubuntu0.11.10.3' --arch=i386 --prefix=/usr --enable-vdpau --enable-bzlib --enable-libgsm --enable-libschroedinger --enable-libspeex --enable-libtheora --enable-libvorbis --enable-pthreads --enable-zlib --enable-libvpx --enable-runtime-cpudetect --enable-vaapi --enable-gpl --enable-postproc --enable-swscale --enable-x11grab --enable-libdc1394 --shlibdir=/usr/lib/i686/cmov --cpu=i686 --enable-shared --disable-static --disable-ffmpeg --disable-ffplay
  avcodec     configuration: --extra-version='4:0.7.6-0ubuntu0.11.10.3' --arch=i386 --prefix=/usr --enable-vdpau --enable-bzlib --enable-libgsm --enable-libschroedinger --enable-libspeex --enable-libtheora --enable-libvorbis --enable-pthreads --enable-zlib --enable-libvpx --enable-runtime-cpudetect --enable-vaapi --enable-gpl --enable-postproc --enable-swscale --enable-x11grab --enable-libdc1394 --shlibdir=/usr/lib/i686/cmov --cpu=i686 --enable-shared --disable-static --disable-ffmpeg --disable-ffplay
  avformat    configuration: --extra-version='4:0.7.6-0ubuntu0.11.10.3' --arch=i386 --prefix=/usr --enable-vdpau --enable-bzlib --enable-libgsm --enable-libschroedinger --enable-libspeex --enable-libtheora --enable-libvorbis --enable-pthreads --enable-zlib --enable-libvpx --enable-runtime-cpudetect --enable-vaapi --enable-gpl --enable-postproc --enable-swscale --enable-x11grab --enable-libdc1394 --shlibdir=/usr/lib/i686/cmov --cpu=i686 --enable-shared --disable-static --disable-ffmpeg --disable-ffplay
  avdevice    configuration: --extra-version='4:0.7.6-0ubuntu0.11.10.3' --arch=i386 --prefix=/usr --enable-vdpau --enable-bzlib --enable-libgsm --enable-libschroedinger --enable-libspeex --enable-libtheora --enable-libvorbis --enable-pthreads --enable-zlib --enable-libvpx --enable-runtime-cpudetect --enable-vaapi --enable-gpl --enable-postproc --enable-swscale --enable-x11grab --enable-libdc1394 --shlibdir=/usr/lib/i686/cmov --cpu=i686 --enable-shared --disable-static --disable-ffmpeg --disable-ffplay
  avfilter    configuration: --extra-version='4:0.7.6-0ubuntu0.11.10.3' --arch=i386 --prefix=/usr --enable-vdpau --enable-bzlib --enable-libgsm --enable-libschroedinger --enable-libspeex --enable-libtheora --enable-libvorbis --enable-pthreads --enable-zlib --enable-libvpx --enable-runtime-cpudetect --enable-vaapi --enable-gpl --enable-postproc --enable-swscale --enable-x11grab --enable-libdc1394 --shlibdir=/usr/lib/i686/cmov --cpu=i686 --enable-shared --disable-static --disable-ffmpeg --disable-ffplay
  swscale     configuration: --extra-version='4:0.7.6-0ubuntu0.11.10.3' --arch=i386 --prefix=/usr --enable-vdpau --enable-bzlib --enable-libgsm --enable-libschroedinger --enable-libspeex --enable-libtheora --enable-libvorbis --enable-pthreads --enable-zlib --enable-libvpx --enable-runtime-cpudetect --enable-vaapi --enable-gpl --enable-postproc --enable-swscale --enable-x11grab --enable-libdc1394 --shlibdir=/usr/lib/i686/cmov --cpu=i686 --enable-shared --disable-static --disable-ffmpeg --disable-ffplay
  postproc    configuration: --extra-version='4:0.7.6-0ubuntu0.11.10.3' --arch=i386 --prefix=/usr --enable-vdpau --enable-bzlib --enable-libgsm --enable-libschroedinger --enable-libspeex --enable-libtheora --enable-libvorbis --enable-pthreads --enable-zlib --enable-libvpx --enable-runtime-cpudetect --enable-vaapi --enable-gpl --enable-postproc --enable-swscale --enable-x11grab --enable-libdc1394 --shlibdir=/usr/lib/i686/cmov --cpu=i686 --enable-shared --disable-static --disable-ffmpeg --disable-ffplay
  libavutil    51.  7. 0 / 51.  7. 0
  libavcodec   53.  6. 0 / 53.  6. 0
  libavformat  53.  3. 0 / 53.  3. 0
  libavdevice  53.  0. 0 / 53.  0. 0
  libavfilter   2.  4. 0 /  2.  4. 0
  libswscale    2.  0. 0 /  2.  0. 0
  libpostproc  52.  0. 0 / 52.  0. 0
[mpegts @ 0x9bdd2a0] max_analyze_duration reached
Input #0, mpegts, from '006.vdr':
  Duration: 00:08:14.17, start: 21200.878733, bitrate: 5099 kb/s
  Program 1
    Stream #0.0[0x3e9]: Video: h264 (High), yuv420p, 1280x720 [PAR 1:1 DAR 16:9], 50 fps, 50 tbr, 90k tbn, 100 tbc
    Stream #0.1[0x44c]: Audio: eac3, 48000 Hz, stereo, s16, 320 kb/s
    Stream #0.2[0x44d]: Audio: eac3, 48000 Hz, stereo, s16, 320 kb/s
At least one output file must be specified
tito@test:~/Vídeos$


Felices reyes!! A mi ya me han llegado con tu ayuda y la de todos  Regalo 
avatar
Tito

Cantidad de envíos : 105
Fecha de inscripción : 23/12/2010
Localización : Oviedo, Spain

Ver perfil de usuario

Volver arriba Ir abajo

Re: TVE HD ha cambiado

Mensaje por xabelin el Mar 7 Ene 2014 - 0:21

Tito:

¿Has probado a resintonizar el canal de marras? lo sugiero porque igual cambiaron algún indicativo o código al canal y eso provoca el problema.

Dejo a la gente sabia del lugar que te den ideas de cómo borrarlo en profundidad para garantizar que se recargan los nuevos (supuestamente) parámetros del canal.

Un saludo.

xabelin

Cantidad de envíos : 26
Fecha de inscripción : 29/07/2008
Localización : Oviedo

Ver perfil de usuario

Volver arriba Ir abajo

Re: TVE HD ha cambiado

Mensaje por bittor el Mar 7 Ene 2014 - 13:03

Aparentemente las características del vídeo y del audio son idénticas en ambas grabaciones, la única diferencia es que en la que no se ve sale el mensaje:
max_analyze_duration reached
No tengo mucha idea en formatos de vídeo ni de ese mensaje, pero parece que la duración de la grabación es excesiva, quizás hayan cambiado algo en las cabeceras del mpeg.
Prueba a hacer lo mismo en otros archivos (que se vean y no) a ver si te sale ese mismo mensaje en todas las que no se ven.

También puedes probar lo que dice xabelin y busca otra vez canales y le indicas que actualice los datos de los canales que ya tienes.
avatar
bittor
Desarrollador

Cantidad de envíos : 3632
Fecha de inscripción : 25/06/2008
Localización : Zaragoza

Ver perfil de usuario http://bittor7x0.googlepages.com

Volver arriba Ir abajo

Re: TVE HD ha cambiado

Mensaje por Tito el Dom 12 Ene 2014 - 14:09

bittor escribió:parece que la duración de la grabación es excesiva, quizás hayan cambiado algo en las cabeceras del mpeg.
He probado a grabar 1' aprox de TVE HD y me sale parecido mensaje. Parecido porque he usado otra distribucion de linux (Linux Lite). Este es el del "malo"
Código:
tito@tito-virtual-machine:~/Videos$ ffmpeg -i 001.vdr
ffmpeg version 0.8.6-4:0.8.6-0ubuntu0.12.04.1, Copyright (c) 2000-2013 the Libav developers
  built on Apr  2 2013 17:00:59 with gcc 4.6.3
*** THIS PROGRAM IS DEPRECATED ***
This program is only provided for compatibility and will be removed in a future release. Please use avconv instead.
[mpegts @ 0x8109aa0] max_analyze_duration reached
[mpegts @ 0x8109aa0] PES packet size mismatch
Input #0, mpegts, from '001.vdr':
  Duration: 00:00:42.57, start: 38285.325367, bitrate: 4454 kb/s
  Program 1
   Stream #0.0[0x3e9]: Video: h264 (High), yuv420p, 1280x720 [PAR 1:1 DAR 16:9], 50 fps, 50 tbr, 90k tbn, 100 tbc
    Stream #0.1[0x44c]: Audio: eac3, 48000 Hz, stereo, s16, 320 kb/s
    Stream #0.2[0x44d]: Audio: eac3, 48000 Hz, stereo, s16, 320 kb/s
At least one output file must be specified
tito@tito-virtual-machine:~/Videos$

Este es lo que me aparece en el "bueno"
Código:
tito@tito-virtual-machine:~/Videos$ ffmpeg -i 005.vdr
ffmpeg version 0.8.6-4:0.8.6-0ubuntu0.12.04.1, Copyright (c) 2000-2013 the Libav developers
  built on Apr  2 2013 17:00:59 with gcc 4.6.3
*** THIS PROGRAM IS DEPRECATED ***
This program is only provided for compatibility and will be removed in a future release. Please use avconv instead.
[mpegts @ 0x819daa0] PES packet size mismatch
Input #0, mpegts, from '005.vdr':
  Duration: 00:01:29.63, start: 83344.991778, bitrate: 10423 kb/s
  Program 1
   Stream #0.0[0x3e9]: Video: h264 (High), yuv420p, 1280x720 [PAR 1:1 DAR 16:9], 50 fps, 50 tbr, 90k tbn, 100 tbc
    Stream #0.1[0x44c]: Audio: eac3, 48000 Hz, 5.1, s16, 320 kb/s
    Stream #0.2[0x44d]: Audio: eac3, 48000 Hz, 5.1, s16, 320 kb/s
At least one output file must be specified
tito@tito-virtual-machine:~/Videos$

bittor escribió:
También puedes probar lo que dice xabelin y busca otra vez canales y le indicas que actualice los datos de los canales que ya tienes.
Los he actualizado a cañonazos: reinstalandole el firmware. El último "malo" que encontré es el que he expuesto. Identicos síntomas.

Aprovecho para daros las gracias y haceros una pregunta: Viendo las grabaciones por una TV HD atraves del mediatomb ¿Se ve TVE HD?, bueno, TVE 1HD, que parece coincidir el cambio de nombre con no poder verla como me ocurre. Si es afirmativa la respuesta no tengo disculpa para no abandonar la TV catódica.
avatar
Tito

Cantidad de envíos : 105
Fecha de inscripción : 23/12/2010
Localización : Oviedo, Spain

Ver perfil de usuario

Volver arriba Ir abajo

Re: TVE HD ha cambiado

Mensaje por Tito el Dom 12 Ene 2014 - 18:12

Añado mas, Introdujo TVE otra cadena HD: Teledeporte HD. De calidad tan buena como la otra. Se ve y se oye la grabación perfectamente. Dada la sorpresa, me puse a ver si la 1 HD seguia en las mismas, y peor, VLC daba este mensaje
Código:
VLC no puede reconocer el formato de entrada
El formato de «http://192.168.1.10//vdrwi.kl1?p=5&a=11&path=Un_Pueblo_Llamado_Dante%27S_Peak_%28HD%29%2F2014-01-12.17.16.50.99.rec&type=2&hostId=0» no puede detectarse. Vea el log para más detalles.
Parece como si alguien estuviera configurando algo, pero un domingo por la tarde es extraño.
avatar
Tito

Cantidad de envíos : 105
Fecha de inscripción : 23/12/2010
Localización : Oviedo, Spain

Ver perfil de usuario

Volver arriba Ir abajo

Re: TVE HD ha cambiado

Mensaje por bittor el Lun 13 Ene 2014 - 13:13

Tito escribió:He probado a grabar 1' aprox de TVE HD y me sale parecido mensaje. Parecido porque he usado otra distribucion de linux (Linux Lite). Este es el del "malo"
Pues tiene pinta que es por el error "max_analyze_duration reached", quizás haya más información por algún otro foro.

Tito escribió:Los he actualizado a cañonazos: reinstalandole el firmware. El último "malo" que encontré es el que he expuesto. Identicos síntomas.
Tengo dudas de qué has hecho para actualizar el canal, simplemente hay que darle a buscar canales y decirle que actualice los datos de los canales que ya tienes.

Tito escribió:Viendo las grabaciones por una TV HD atraves del mediatomb ¿Se ve TVE HD?, bueno, TVE 1HD, que parece coincidir el cambio de nombre con no poder verla como me ocurre. Si es afirmativa la respuesta no tengo disculpa para no abandonar la TV catódica.
Lo tienes fácil de probar, activa el mediatomb en el giga y con el VLC en el PC vas a redes y en uPnP tendrás que verlo para ver si lo reproduce bien.
avatar
bittor
Desarrollador

Cantidad de envíos : 3632
Fecha de inscripción : 25/06/2008
Localización : Zaragoza

Ver perfil de usuario http://bittor7x0.googlepages.com

Volver arriba Ir abajo

Re: TVE HD ha cambiado

Mensaje por Tito el Mar 14 Ene 2014 - 17:12

Bittor escribió:activa el mediatomb en el giga y con el VLC en el PC vas a redes y en uPnP tendrás que verlo para ver si lo reproduce bien.

Lo he hecho en el Mac (aqui pone Plug 'n' play universal) y sale lo que salga por el mediatomb. Mismos síntomas. Buscaré otro reproductor a ver ¿sabeis de alguno alternativo?

Tal vez el VLC sea sensible a alguna cosilla, por eso pregunto si alguien lo reprodujo en un TV via DLNA.

Sigo investigando.
avatar
Tito

Cantidad de envíos : 105
Fecha de inscripción : 23/12/2010
Localización : Oviedo, Spain

Ver perfil de usuario

Volver arriba Ir abajo

Re: TVE HD ha cambiado

Mensaje por Tito el Dom 19 Ene 2014 - 20:50

Novedad Smile , mi compañero y amigo Josu, al que le pedí que me ayudara en la "investigación" descubrió que Kmplayer (Windows, Linux) funciona con la 1 TVE Hd, la que se me resistía.
Hice mis comprobaciones y así es, tanto el archivo mpg creado como la lista de reproducción m3u reproduce perfectamente esta cadena y las demás.
Lástima que no haya versión para Mac OS, pero no importa, cuando se trate de ver La 1HD arranco la máquina virtual y arreando.
Sigo buscando un player para Mac OS, ahora mas tranquilo.
Gracias a vuestra ayuda  Regalo .

EDITO. Ya encontré player para MAC, el UMPlayer. Reproduce lo mismo  listas de reproducción que archivos.
avatar
Tito

Cantidad de envíos : 105
Fecha de inscripción : 23/12/2010
Localización : Oviedo, Spain

Ver perfil de usuario

Volver arriba Ir abajo

Re: TVE HD ha cambiado

Mensaje por bittor el Lun 20 Ene 2014 - 16:22

Según el ffmpeg los archivos que no se podían reproducir tenían el problema de la duración y quizás estos reproductores se "saltan" esa limitación, pero desde mi ignorancia en archivos de vídeo creo que el archivo tiene algo mal, en principio por culpa de TVE porque antes no pasaba.

De todas formas, si es reproducible con estos players, al menos no son grabaciones inservibles.
Me alegro.
avatar
bittor
Desarrollador

Cantidad de envíos : 3632
Fecha de inscripción : 25/06/2008
Localización : Zaragoza

Ver perfil de usuario http://bittor7x0.googlepages.com

Volver arriba Ir abajo

Re: TVE HD ha cambiado

Mensaje por Contenido patrocinado


Contenido patrocinado


Volver arriba Ir abajo

Ver el tema anterior Ver el tema siguiente Volver arriba


 
Permisos de este foro:
No puedes responder a temas en este foro.